Advertising (remove)

HardFuckTales - Marya - Group Sex Video With Three Strangers

seeders: 5
leechers: 2


Added on Feb 17, 2013 by ponklay6126 in XXX > Video
Torrent verified. Downloaded 10 times.

HardFuckTales - Marya - Group Sex Video With Three Strangers (Size: 402.44 MB)
  Hardfucktales_Marya_Group_sex_video_with_three_strangers.mp4 402.44 MB
Advertising (remove)

Description

Screens:
http://imgchili.com/show/25533/25533825_hardfucktales_marya_.jpg
This hottie just found out that her boyfriend cheated on her with her best friend! To settle score with him, she asks three strangers to have sex with her. The guys agree, and who wouldn't? The unfaithful boyfriend tried to stop them, but eventually the guys knock him out. So here they are, in the girl's room, with her unconscious boyfriend tied to the chair. The girl takes her clothes off, and a wild hardcore fuck begins! The cutie is drilled hard in her mouth and pussy, and just when her boyfriend comes round, she is drilled in her tight butt. It makes the boyfriend mad, but there's nothing he can do to stop it. Blind…

Hardfucktales_Marya_Group_sex_video_with_three_strangers.mp4
Format : MPEG-4
Format profile : Base Media
Codec ID : isom
File size : 402 MiB
Duration : 1h 9mn
Overall bit rate : 806 Kbps
Tagged date : UTC 2011-10-06 21:20:59
Writing application : Lavf53.12.0

Video
ID : 1
Format : AVC
Format/Info : Advanced Video Codec
Format profile : High@L3.0
Format settings, CABAC : Yes
Format settings, ReFrames : 4 frames
Codec ID : avc1
Codec ID/Info : Advanced Video Coding
Duration : 1h 9mn
Bit rate mode : Variable
Bit rate : 735 Kbps
Width : 768 pixels
Height : 432 pixels
Display aspect ratio : 16:9
Frame rate mode : Constant
Frame rate : 25.000 fps
Color space : YUV
Chroma subsampling : 4:2:0
Bit depth : 8 bits
Scan type : Progressive
Bits/(Pixel*Frame) : 0.089
Stream size : 367 MiB (91%)
Writing library : x264 core 116 r2074 2641b9e
Encoding settings : cabac=1 / ref=3 / deblock=1:0:0 / analyse=0x3:0x113 / me=umh / subme=7 / psy=0 / mixed_ref=1 / me_range=16 / chroma_me=1 / trellis=1 / 8x8dct=1 / cqm=0 / deadzone=21,11 / fast_pskip=1 / chroma_qp_offset=0 / threads=3 / sliced_threads=0 / nr=0 / decimate=1 / interlaced=0 / bluray_compat=0 / constrained_intra=0 / bframes=3 / b_pyramid=2 / b_adapt=2 / b_bias=0 / direct=3 / weightb=1 / open_gop=0 / weightp=2 / keyint=150 / keyint_min=5 / scenecut=40 / intra_refresh=0 / rc_lookahead=40 / rc=crf / mbtree=1 / crf=24.0 / qcomp=0.60 / qpmin=12 / qpmax=51 / qpstep=4 / vbv_maxrate=3000 / vbv_bufsize=6000 / crf_max=0.0 / nal_hrd=none / ip_ratio=1.40 / aq=1:1.00

Audio
ID : 2
Format : AAC
Format/Info : Advanced Audio Codec
Format profile : LC
Codec ID : 40
Duration : 1h 9mn
Bit rate mode : Constant
Bit rate : 64.0 Kbps
Channel(s) : 1 channel
Channel positions : Front: C
Sampling rate : 48.0 KHz
Compression mode : Lossy
Delay relative to video : 80ms
Stream size : 32.0 MiB (8%)

Related Torrents

torrent name size files age seed leech

Sharing Widget


Download this file
402.44 MB
seeders:5
leechers:2
HardFuckTales - Marya - Group Sex Video With Three Strangers

Trackers

tracker name Status checked seeders leechers downloads
udp://tracker.openbittorrent.com:80/announce
outdated 07 Jan 2014 - - -
udp://tracker.publicbt.com:80/announce
outdated 07 Jan 2014 - - -
udp://tracker.istole.it:80/announce
outdated 07 Jan 2014 - - -
http://exodus.desync.com:6969/announce
blocked 07 Jan 2014 - - -
http://www.h33t.com:3310/announce
deleted 07 Jan 2014 - - -
µTorrent compatible trackers list

Locations

name
KickassTorrents
Torrent hash: EAF457FD17F721543C387E31B24409750039CE1B

All Comments

audio
0/10
video
0/10
please, leave only comments related to that torrent
or sign-in
0
snowyriverfella580 • 12 November 2013, 16:21
torrent downloaded
Show comment
It is what it says. What it doesn't say is that Marya is trim & gorgeous. She is also DPed. Nice. Thanks u/l & seeders.
0
anonymous • 15 June 2013, 16:28 Show comment
A very good torrent
1
Tyrker12654 • 03 March 2013, 23:06
torrent downloaded
Show comment
Thanks mate

User Opinions

IamUbiquitous2516, tank0332210, StarFoxx1982, VeeSick1645, rakolili1185, UCap19741012, snowyriverfella580, aleckan538, tikho135, kutyatibi116 ... And 6 more
ScottVonSTF417
Report a bug